PS3 Honey Search

News About PS3

Requests are open. Make your request
PS3 4.30 CFW Released Enjoy new games with FW upto 4.30 without any Eboot fix. If you had previously fixed 3.55 CFW games Replace those fixes with original Files/Eboots/sprx
Download PS3 Fonts For Your PC:

Downloaders

Sunday, 7 October 2012

Taken 2 2012 CAM XviD-NOYPi[869MB] torrent




Click For Info:


General
Complete name : C:\Users\\Documents\Taken 2 2012 CAM XviD-NOYPi.avi
Format : AVI
Format/Info : Audio Video Interleave
File size : 862 MiB
Duration : 1h 23mn
Overall bit rate : 1 445 Kbps
Writing application : VirtualDubMod 1.5.10.2 (build 2540/release)
Writing library : VirtualDubMod build 2540/release
Video
ID : 0
Format : MPEG-4 Visual
Format profile : Advanced Simple@L5
Format settings, BVOP : 2
Format settings, QPel : No
Format settings, GMC : No warppoints
Format settings, Matrix : Default (H.263)
Muxing mode : Packed bitstream
Codec ID : XVID
Codec ID/Hint : XviD
Duration : 1h 23mn
Bit rate : 666 Kbps
Width : 640 pixels
Height : 300 pixels
Display aspect ratio : 3:2
Original display aspect ratio : 2.133
Frame rate : 29.970 fps
Color space : YUV
Chroma subsampling : 4:2:0
Bit depth : 8 bits
Scan type : Progressive
Compression mode : Lossy
Bits/(Pixel*Frame) : 0.116
Stream size : 397 MiB (46%)
Writing library : XviD 64
Audio
ID : 1
Format : PCM
Format settings, Endianness : Little
Format settings, Sign : Signed
Codec ID : 1
Duration : 1h 23mn
Bit rate mode : Constant
Bit rate : 768 Kbps
Channel(s) : 1 channel
Sampling rate : 48.0 KHz
Bit depth : 16 bits
Stream size : 458 MiB (53%)
Interleave, duration : 33 ms (1.00 video frame)
Interleave, preload duration : 500 ms


-----------------------
CAM
----------------------








How To Download: 
Download Files By Copying the Link and paste to Browser. Or Select Link press Right-Click, select goto link(In chrome) Would Be different in other browsers.
After open the link, wait 5sec, Press Skip Ad at the top right. Download file.


For Torrent Download:
Click On Link and Torrent will be downloaded automatically.
Open torrent file with your favourite torrent client(Like uTorrent).

Note: Downloading files using any of the downloader will help you download files faster and easily.


IF THERES ANY DEAD LINKS, LEAVE A COMMENT HERE I"LL REPOST ASAP!


------------------
CAM
------------------



Important Downloads: - Direct Link - Click Image

     

Downloads:
Info Hash: 31CDC2D66A35474B5E3DEB3626A517A46FFEBF00

If you Like it Please say Thanks!




No comments:

Post a Comment

Related Posts Plugin for WordPress, Blogger...