PS3 Honey Search

News About PS3

Requests are open. Make your request
PS3 4.30 CFW Released Enjoy new games with FW upto 4.30 without any Eboot fix. If you had previously fixed 3.55 CFW games Replace those fixes with original Files/Eboots/sprx
Download PS3 Fonts For Your PC:

Downloaders

Sunday, 30 September 2012

Shirin Farhad Ki Toh Nikal Padi (2012)-1CD-DVDRip-By-K@rtik EXD Exclusive[711MB] torrent




Click For Info:


Format                                   : Matroska
Format version                           : Version 2
File size                                : 697 MiB
Duration                                 : 1h 51mn
Overall bit rate                         : 872 Kbps
Movie name                               : Shirin Farhad Ki Toh Nikal Padi (2012)-1CD-DVDRip-By-K@rtik [EXD Exclusive]

Video
Code:
Format                                   : AVC
Format/Info                              : Advanced Video Codec
Format profile                           : High@L3.0
Format settings, CABAC                   : Yes
Format settings, ReFrames                : 4 frames
Muxing mode                              : Header stripping
Codec ID                                 : V_MPEG4/ISO/AVC
Duration                                 : 1h 51mn
Bit rate                                 : 743 Kbps
Width                                    : 720 pixels
Height                                   : 304 pixels
Display aspect ratio                     : 2.35:1
Frame rate                               : 23.976 fps
Color space                              : YUV
Chroma subsampling                       : 4:2:0
Bit depth                                : 8 bits
Scan type                                : Progressive
Bits/(Pixel*Frame)                       : 0.142
Stream size                              : 581 MiB (83%)
Title                                    : K@rtik
Writing library                          : x264 core 125 r2200 999b753

Audio
Code:
Codec ID                                 : A_AC3
Duration                                 : 1h 51mn
Bit rate mode                            : Constant
Bit rate                                 : 128 Kbps
Channel(s)                               : 2 channels
Channel positions                        : Front: L R
Sampling rate                            : 48.0 KHz
Bit depth                                : 16 bits
Compression mode                         : Lossy
Stream size                              : 102 MiB (15%)
Title                                    : K@rtik
Language                                 : Hindi


-----------------------
DVDRIP
----------------------








How To Download: 
Download Files By Copying the Link and paste to Browser. Or Select Link press Right-Click, select goto link(In chrome) Would Be different in other browsers.
After open the link, wait 5sec, Press Skip Ad at the top right. Download file.


For Torrent Download:
Click On Link and Torrent will be downloaded automatically.
Open torrent file with your favourite torrent client(Like uTorrent).

Note: Downloading files using any of the downloader will help you download files faster and easily.



IF THERES ANY DEAD LINKS, LEAVE A COMMENT HERE I"LL REPOST ASAP!


------------------
DVDRIP
------------------



Important Downloads: - Direct Link - Click Image

     

Downloads:
Info Hash: AA0C2E0BF865D1EEFD3975E83EC73F5B1BB6DB31

If you Like it Please say Thanks!




No comments:

Post a Comment

Related Posts Plugin for WordPress, Blogger...