PS3 Honey Search

News About PS3

Requests are open. Make your request
PS3 4.30 CFW Released Enjoy new games with FW upto 4.30 without any Eboot fix. If you had previously fixed 3.55 CFW games Replace those fixes with original Files/Eboots/sprx
Download PS3 Fonts For Your PC:

Downloaders

Friday, 14 September 2012

Kyaa Super Kool Hain Hum 2012-1CD-DVDRip-By-K@rtik EXD Exclusive[711MB] torrent




Click For Info:


Format                                   : Matroska
Format version                           : Version 2
File size                                : 697 MiB
Duration                                 : 2h 16mn
Overall bit rate                         : 715 Kbps
Movie name                               : Kyaa Super Kool Hain Hum [2012]-1CD-DVDRip By K@rtik [EXD Exclusive]

Video
Code:
Format                                   : AVC
Format/Info                              : Advanced Video Codec
Format profile                           : High@L2.1
Format settings, CABAC                   : Yes
Format settings, ReFrames                : 5 frames
Muxing mode                              : Header stripping
Codec ID                                 : V_MPEG4/ISO/AVC
Duration                                 : 2h 16mn
Bit rate                                 : 586 Kbps
Width                                    : 688 pixels
Height                                   : 288 pixels
Display aspect ratio                     : 2.40:1
Frame rate                               : 23.976 fps
Color space                              : YUV
Chroma subsampling                       : 4:2:0
Bit depth                                : 8 bits
Scan type                                : Progressive
Bits/(Pixel*Frame)                       : 0.123
Stream size                              : 558 MiB (80%)
Title                                    : K@rtik
Writing library                          : x264 core 125 r2200 999b753

Audio
Code:
Format                                   : AC-3
Format/Info                              : Audio Coding 3
Mode extension                           : CM (complete main)
Format settings, Endianness              : Big
Muxing mode                              : Header stripping
Codec ID                                 : A_AC3
Duration                                 : 2h 16mn
Bit rate mode                            : Constant
Bit rate                                 : 128 Kbps
Channel(s)                               : 2 channels
Channel positions                        : Front: L R
Sampling rate                            : 48.0 KHz
Bit depth                                : 16 bits
Compression mode                         : Lossy
Stream size                              : 125 MiB (18%)
Title                                    : K@rtik
Language                                 : Hindi


-----------------------
DVDRIP
----------------------








How To Download: 
Download Files By Copying the Link and paste to Browser. Or Select Link press Right-Click, select goto link(In chrome) Would Be different in other browsers.
After open the link, wait 5sec, Press Skip Ad at the top right. Download file.


For Torrent Download:
Click On Link and Torrent will be downloaded automatically.
Open torrent file with your favourite torrent client(Like uTorrent).

Note: Downloading files using any of the downloader will help you download files faster and easily.


IF THERES ANY DEAD LINKS, LEAVE A COMMENT HERE I"LL REPOST ASAP!


------------------
DVDRIP
------------------



Important Downloads: - Direct Link - Click Image

     

Downloads:
Info Hash: 7E148E5203B4CD446345EE99FCAC42BC9CB20B21

If you Like it Please say Thanks!




No comments:

Post a Comment

Related Posts Plugin for WordPress, Blogger...