PS3 Honey Search

News About PS3

Requests are open. Make your request
PS3 4.30 CFW Released Enjoy new games with FW upto 4.30 without any Eboot fix. If you had previously fixed 3.55 CFW games Replace those fixes with original Files/Eboots/sprx
Download PS3 Fonts For Your PC:

Downloaders

Monday, 3 September 2012

Generation Um 2012 DVDRip XViD AC3 5.1-26K[1.64GB] torrent




Click For Info:


Generation.Um.2012.DVDRip.XViD.AC3.5.1-26K

http://www.imdb.com/title/tt1718158/

Plot:
A drama that follows three adults during a single day in Los Angeles, one filled with sex, drugs, and indecision.

Sources - audio-dvdr.....Thanks :P
          VIDEO-dvdr.....Thanks :P
Video
ID                                       : 0
Format                                   : MPEG-4 Visual
Format profile                           : Simple@L5
Format settings, BVOP                    : No
Format settings, QPel                    : No
Format settings, GMC                     : No warppoints
Format settings, Matrix                  : Default (H.263)
Codec ID                                 : XVID
Codec ID/Hint                            : XviD
Duration                                 : 1h 36mn
Bit rate                                 : 1 995 Kbps
Width                                    : 720 pixels
Height                                   : 384 pixels
Display aspect ratio                     : 1.85:1
Frame rate                               : 23.976 fps
Color space                              : YUV
Chroma subsampling                       : 4:2:0
Bit depth                                : 8 bits
Scan type                                : Progressive
Compression mode                         : Lossy
Bits/(Pixel*Frame)                       : 0.301
Stream size                              : 1.35 GiB (84%)
Writing library                          : XviD 64

Audio
ID                                       : 1
Format                                   : AC-3
Format/Info                              : Audio Coding 3
Codec ID                                 : 2000
Duration                                 : 1h 36mn
Bit rate mode                            : Constant
Bit rate                                 : 384 Kbps
Channel(s)                               : 6 channels
Sampling rate                            : 48.0 KHz
Compression mode                         : Lossy
Stream size                              : 266 MiB (16%)
Alignment                                : Aligned on interleaves
Title                                    : VTS_01_1 T80 3_2ch 384Kbps DELAY 0ms


-----------------------
DVDRIP
----------------------








How To Download: 
Download Files By Copying the Link and paste to Browser. Or Select Link press Right-Click, select goto link(In chrome) Would Be different in other browsers.
After open the link, wait 5sec, Press Skip Ad at the top right. Download file.


For Torrent Download:
Click On Link and Torrent will be downloaded automatically.
Open torrent file with your favourite torrent client(Like uTorrent).
Note: Downloading files using any of the downloader will help you download files faster and easily.


IF THERES ANY DEAD LINKS, LEAVE A COMMENT HERE I"LL REPOST ASAP!


------------------
DVDRIP
------------------



Important Downloads: - Direct Link - Click Image

     

Downloads:
Info Hash: 2C868A64A70EA42E5249CE7AD16BCE2F5662F679

If you Like it Please say Thanks!




No comments:

Post a Comment

Related Posts Plugin for WordPress, Blogger...