PS3 Honey Search

News About PS3

Requests are open. Make your request
PS3 4.30 CFW Released Enjoy new games with FW upto 4.30 without any Eboot fix. If you had previously fixed 3.55 CFW games Replace those fixes with original Files/Eboots/sprx
Download PS3 Fonts For Your PC:

Downloaders

Sunday, 30 September 2012

Ps3usercheat v2.3 + cheatlist.dat v6.1




Click For Info:

Cheat Pkg For PS3


-----------------------
Tested On 3.55 Kmeaw
----------------------

X-men Destiny[PS3][USA][7.07GB][3.41 - 3.55 Kmeaw][Torrent]




Click For Info:


In X-Men Destiny, players control the fate of one of three brand-new mutant characters forced to choose between saving humanity or ensuring its destruction. The branching storyline, penned by acclaimed Marvel writer Mike Carey, features a deep element of choice, allowing players to customize the path, powers and development of their character and to decide their role in the mutant cause alongside, or against, some of Marvel’s greatest X-Men franchise characters, such as Magneto, Cyclops, Wolverine and Gambit. In this third-person action/RPG, X-Gene enhancements deliver a deeper level of customization to players’ powers, with a chance for players to experience the abilities of their favorite X-Men mutants. Gamers will evolve their mutant skills in unique ways and engage in fast and furious combat, spectacular combo-driven attacks and rewarding finishing moves against a variety of opponents bent on defending their beliefs.

Release Date: September 27, 2011
T for Teen: Mild Language, Mild Suggestive Themes, Violence
Genre: Action
Publisher: Activision
Developer: Silicon Knights


-----------------------
Tested On 3.55 Kmeaw
Ext HDD + SELECT + X - Game Disc
----------------------



The Testament of Sherlock Holmes[6.46GB] torrent




Click For Info:


Description:


The game will take place in the year 1898 in London. In the storyline, Sherlock Holmes becomes the number one suspect in a series of high-profile crimes. He
cannot prove his innocence because the evidence against him and Holmes are rapidly losing confidence in London. Even his best friend Dr. Watson begins to doubt the innocence of the famous detective.


System Requirements:


Installation Steps:


1) Download the torrent

2) Install the game Via Setup

3) Wait for Crack


ENJOY!


Operating system: Windows XP SP3/Windows Vista SP2/Windows 7 SP1
Processor: Intel Pentium D 3.0 GHz/AMD Athlon LE-1660
RAM: 1.5 GB
Video card: Nvidia GeForce GT 220/ATI Radeon HD 4650
Free space on hard disk: 10 GB


-----------------------
Wait For Cracked
----------------------



Angry Birds Space v1.3.0 cracked READ NFO-THETA[35MB] torrent




Click For Info:


RELEASE INFO

 Angry Birds Space v1.3.0

(c) by Rovio Mobile

 Date: 27-09-2012            Protection: Custom activation

 Release: Patch               by Ignite

> Use the key from 'Readme.txt' to  activate  the game after
applying the patch.

Put the patch in the game folder and double click to run then click on patch,
Game works well and patch works fine also the key works fine once the game is patched


-----------------------
PC - Cracked
----------------------



Bad Piggies v1.0.0 cracked-THETA[31MB] torrent




Click For Info:


RELEASE INFO

 Bad Piggies v1.0.0

(c) by Rovio Mobile

 Date: 27-09-2012            Protection: Custom activation

 Release: Patch               by Ignite


-----------------------
PC - Cracked
----------------------



Carrier Command Gaea Mission Proper-RELOADED[3.03GB] torrent




Click For Info:


Carrier Command: Gaea Mission (c) Bohemia Interactive

09/2012: RELEASE.DATE .. PROTECTION: Solidshield
1: DISC(S) .. GAME.TYPE: Action / Strategy

Note:

SKIDROWs crack crashes frequently during startup. Here is our proper
As a bonus we have cracked v1.02 and included that

From the creators of the award-winning Arma tactical military shooter
series comes a next-gen re-imagination of a groundbreaking 80s classic. Set
in a vast open archipelago, Carrier Command: Gaea Mission brings a
breathtaking combination of action game and strategy elements!

As a result of a catastrophic war between the United Earth Coalition and
the Asian Pacific Alliance, Earth has been rendered an almost uninhabitable
wasteland. The only hope lies in a distant planetary system, where the moon
Taurus holds the key to restoring Earth's dwindling water supply. As a
battle-hardened member of the surviving UEC forces, Lt Myrik is put in
command of an armed vehicle carrier. By traversing the seas and establishing
a network of island bases, his mission is to hunt down the enemy and conquer
the Dead Zone on the planetoid Taurus

1. Unrar
2. Burn or mount the image
3. Install the game
4. Install the update found in the /Crack dir on the DVD
5. Copy the content from /Crack directory to directory
6. Play the game
7. Support the software developers. If you like this game, BUY IT!


-----------------------
PC - Cracked
----------------------



Carrier Command Gaea Mission-Patch 1.02 & Crack-SKIDROW[17.57MB] torrent




Click For Info:

Carrier Command Gaea Mission-Patch 1.02 & Crack-SKIDROW 


-----------------------
PC - Cracked
----------------------



Fabled Legends: The Dark Piper Collectors Edition v1.0-TE[566MB] torrent




Click For Info:


TE 2012 PRESENTS

ANOTHER FINE RELEASE

Release: Fabled Legends The Dark Piper Collectors Edition v1.0
(c) 2012 Blue Tea Games

Date: 09/25/2012

Cracked By: Twisted EndZ

Release Type:
[ ] Registration/Serial Crack
[ ] Activation Crack
[ ] Trial Crack
[ ] Server Check Crack
[ ] Serial
[ ] Hidden/Added Features Enabler
[X] Other: Armadillo

[ ] Loader Patcher [ ] Patch [X] Precracked [ ] RegFile
[ ] Keygen

The Dark Piper strikes in Fabled Legends: The Dark Piper! The fiend unleashes infested rodents into the town of Hamelin using the magical Pied Piper Flute. As the Fabled Inspector, you are summoned by the duke to investigate and stop this mysterious figure. Defeat the Dark Piper before he leaves a trail of destruction all across Europe!


System Requirements:

╖ Operating System: Windows XP or better.
╖ Processor Speed: 1GHz or better.
╖ System RAM: 512 MB or more.
╖ Video Driver:DirectX 9 or better.
╖ Hard Drive: 726 MB free hard drive space or more.
╖ Resolution: 1024x768 or higher.

INSTALLATION NOTES

Install Setup.exe. Crack is preinstalled, launch the game from the shortcut.

VERSION NOTE:

No version information was found. Since this is the first release of this game, it's been tagged as v1.0.

Thats it! Enjoy.


-----------------------
PC - Cracked
----------------------



Heroine (2012) - 1CD - DVDScr Rip - x264 - E.Subs HSG[697MB] torrent




Click For Info:


Info
Rip Size : 697MB
Video Codec : x264 MKV
Audio : 48Kbps AAC
Resolution : 720 x 304
Display Aspect Ratio : 2.35:1
Framerate : 23.976Fps
Duration : 2Hrs & 28Mins
Subtitles : English(Muxed)
Chapters : Yes(Added)
IMDb Link : http://www.imdb.com/title/tt1949548/


-----------------------
DVDScr
----------------------



Kamaal Dhamaal Malamaal (2012)(Audio Cleaned) - SCam Rip - MPEG-PS.VOB[697MB] torrent




Click For Info:


General
Format : MPEG-PS
File size : 698 MiB
Duration : 2h 21mn
Overall bit rate mode : Variable
Overall bit rate : 691 Kbps
Video #224
ID : 224 (0xE0)
Format : MPEG Video
Format version : Version 2
Format profile : Main@Main
Format settings, BVOP : Yes
Format settings, Matrix : Default
Duration : 2h 21mn
Bit rate mode : Variable
Bit rate : 549 Kbps
Maximum bit rate : 9 672 Kbps
Width : 352 pixels
Height : 288 pixels
Display aspect ratio : 4:3
Frame rate : 25.000 fps
Standard : PAL
Color space : YUV
Chroma subsampling : 4:2:0
Bit depth : 8 bits
Scan type : Progressive
Compression mode : Lossy
Bits/(Pixel*Frame) : 0.217
Stream size : 554 MiB (79%)

Audio #192
ID : 192 (0xC0)
Format : MPEG Audio
Format version : Version 1
Format profile : Layer 2
Duration : 2h 21mn
Bit rate mode : Constant
Bit rate : 128 Kbps
Channel(s) : 2 channels
Sampling rate : 48.0 KHz
Compression mode : Lossy
Stream size : 129 MiB (19%)


-----------------------
CAM
----------------------




OH MY GOD (2012)- 1CD- HDScam- XviD (Cleaned)- MP3 (Audio Cleaned)- Team Ictv Exclusive[683MB] torrent




Click For Info:


Year.............: 2012
IMDB Link........: http://www.imdb.com/title/tt2283748/
Gener............: Drama | Comedy
Cast.............: Akshay Kumar | Paresh Rawal

Source...........: Ictv
Rip Size.........: 683 MB [1CD]
Runtime........: 1 Hour 47 Minute

Codec............: XviD - 2 Pass
Container........: AVI
Resolution.......: 640x272
Aspect Ratio.....: 2.35:1
Video Bitrate....: 780 Kbps
Audio Language...: Hindi
Audio Codec......: MP3
Audio............: MP3 2.0 128 Kbps ABR
Framerate........:23.976Fps


-----------------------
CAM
----------------------



Shirin Farhad Ki Toh Nikal Padi (2012)-1CD-DVDRip-By-K@rtik EXD Exclusive[711MB] torrent




Click For Info:


Format                                   : Matroska
Format version                           : Version 2
File size                                : 697 MiB
Duration                                 : 1h 51mn
Overall bit rate                         : 872 Kbps
Movie name                               : Shirin Farhad Ki Toh Nikal Padi (2012)-1CD-DVDRip-By-K@rtik [EXD Exclusive]

Video
Code:
Format                                   : AVC
Format/Info                              : Advanced Video Codec
Format profile                           : High@L3.0
Format settings, CABAC                   : Yes
Format settings, ReFrames                : 4 frames
Muxing mode                              : Header stripping
Codec ID                                 : V_MPEG4/ISO/AVC
Duration                                 : 1h 51mn
Bit rate                                 : 743 Kbps
Width                                    : 720 pixels
Height                                   : 304 pixels
Display aspect ratio                     : 2.35:1
Frame rate                               : 23.976 fps
Color space                              : YUV
Chroma subsampling                       : 4:2:0
Bit depth                                : 8 bits
Scan type                                : Progressive
Bits/(Pixel*Frame)                       : 0.142
Stream size                              : 581 MiB (83%)
Title                                    : K@rtik
Writing library                          : x264 core 125 r2200 999b753

Audio
Code:
Codec ID                                 : A_AC3
Duration                                 : 1h 51mn
Bit rate mode                            : Constant
Bit rate                                 : 128 Kbps
Channel(s)                               : 2 channels
Channel positions                        : Front: L R
Sampling rate                            : 48.0 KHz
Bit depth                                : 16 bits
Compression mode                         : Lossy
Stream size                              : 102 MiB (15%)
Title                                    : K@rtik
Language                                 : Hindi


-----------------------
DVDRIP
----------------------



Dredd 2012 CAM READNFO x264 AAC-UNiQUE[1.43GB] torrent




Click For Info:


General
Complete name : Dredd 2012 CAM READNFO x264 AAC-UNiQUE.mp4
Format : MPEG-4
Format profile : Base Media
Codec ID : isom
File size : 1.39 GiB
Duration : 1h 28mn
Overall bit rate mode : Variable
Overall bit rate : 2 262 Kbps
Encoded date : UTC 2012-09-28 16:19:04

Video
ID : 1
Format : AVC
Format/Info : Advanced Video Codec
Format profile : High@L4.1
Format settings, CABAC : Yes
Format settings, ReFrames : 3 frames
Codec ID : avc1
Codec ID/Info : Advanced Video Coding
Duration : 1h 28mn
Bit rate mode : Variable
Bit rate : 2 172 Kbps
Maximum bit rate : 40.0 Mbps
Width : 720 pixels
Height : 288 pixels
Display aspect ratio : 2.500
Frame rate mode : Constant
Frame rate : 29.970 fps
Color space : YUV
Chroma subsampling : 4:2:0
Bit depth : 8 bits
Scan type : Progressive
Bits/(Pixel*Frame) : 0.350
Stream size : 1.34 GiB (96%)
Writing library : x264 core 128 r2216 198a7ea

Audio
ID : 2
Format : AAC
Format/Info : Advanced Audio Codec
Format profile : LC
Codec ID : 40
Duration : 1h 28mn
Bit rate mode : Variable
Bit rate : 86.2 Kbps
Maximum bit rate : 108 Kbps
Channel(s) : 2 channels
Channel positions : Front: L R
Sampling rate : 44.1 KHz
Compression mode : Lossy
Stream size : 54.4 MiB (4%)
Language : English
Encoded date : UTC 2012-09-28 16:19:45

Source : 26K - Thanks!

Storyline
In a violent, futuristic city where the police have the authority to act as judge, jury and executioner, a cop teams with a trainee to take down a gang that deals the reality-altering drug, SLO-MO.

iMDB: http://www.imdb.com/title/tt1343727/


Notes:
The beginning is missing, not by much, a couple of borders show now and again, and its overall a dark film but nothing to worry about. So i tried to bring some of the picture back by adjusting gamma, yuv, sat, brightness, contrast, it looks decent to me, but you be the judge of that.


-----------------------
CAM
----------------------



Gangs of Wasseypur II (2012) DVDRip XviD 1CDRip DDR[700MB] torrent




Click For Info:


General
Complete name                            : dvdrip-dow2-ddr.avi
Source : DDR
Ripper : th3obr0

Format                                   : AVI
Format/Info                              : Audio Video Interleave
File size                                : 697 MiB
Duration                                 : 2h 39mn
Overall bit rate mode                    : Variable
Overall bit rate                         : 609 Kbps
Writing application                      : VirtualDubMod 1.5.10.2 (build 2540/release)
Writing library                          : VirtualDubMod build 2540/release

Video
ID                                       : 0
Format                                   : MPEG-4 Visual
Format profile                           : Advanced Simple@L5
Format settings, BVOP                    : 1
Format settings, QPel                    : No
Format settings, GMC                     : No warppoints
Format settings, Matrix                  : Custom
Codec ID                                 : XVID
Codec ID/Hint                            : XviD
Duration                                 : 2h 39mn
Bit rate                                 : 522 Kbps
Width                                    : 608 pixels
Height                                   : 256 pixels
Display aspect ratio                     : 2.40:1
Frame rate                               : 23.976 fps
Color space                              : YUV
Chroma subsampling                       : 4:2:0
Bit depth                                : 8 bits
Scan type                                : Progressive
Compression mode                         : Lossy
Bits/(Pixel*Frame)                       : 0.140
Stream size                              : 597 MiB (86%)
Writing library                          : XviD 1.2.1 (UTC 2008-12-04)

Audio
ID                                       : 1
Format                                   : MPEG Audio
Format version                           : Version 1
Format profile                           : Layer 3
Mode                                     : Joint stereo
Mode extension                           : MS Stereo
Codec ID                                 : 55
Codec ID/Hint                            : MP3
Duration                                 : 2h 39mn
Bit rate mode                            : Variable
Bit rate                                 : 80.0 Kbps
Channel(s)                               : 2 channels
Sampling rate                            : 32.0 KHz
Compression mode                         : Lossy
Stream size                              : 88.8 MiB (13%)
Alignment                                : Aligned on interleaves
Interleave, duration                     : 36 ms (0.86 video frame)
Interleave, preload duration             : 252 ms
Writing library                          : LAME3.99r
Encoding settings                        : -m j -V 4 -q 2 -lowpass 13.5 --abr 80


-----------------------
DVDRIP
----------------------



Fear 2[PS3][EUR][3.41 - 3.55 Kmeaw][3.81GB][Torrent]




Click For Info:


A routine assignment to locate the president of Armacham Technology Corporation in connection with an unfolding hostage crisis turns into a desperate battle for survival after an explosion decimates the city and unleashes Alma Wade, the terrifying supernatural menace at the center of Armacham's highly classified Project Origin. As Alma's power swells out of control, special forces Sgt. Michael Becket and his squad must battle through an apocalyptic landscape of shattered buildings and buckled streets in search of clues for how to destroy her. The more Becket learns about Armacham's secret experiments and reckless agenda, the more he begins to suspect that he's somehow linked to the crisis and may be the only one capable of averting total disaster.

Release Date: February 10, 2009
MSRP: 59.99 USD
M for Mature: Blood and Gore, Intense Violence, Partial Nudity, Sexual Themes, Strong Language
Genre: First-Person Shooter
Publisher: Warner Bros. Interactive
Developer: Monolith Productions


-----------------------
Tested On 3.55 Kmeaw
Ext HDD + SELECT + X - Game Disc
----------------------



Friday, 28 September 2012

Resident Evil 6[PS3][DUPLEX][EUR][9.56GB][Torrent]




Click For Info:

Game Code: BLES01465


It has been ten years since the Raccoon City incident and the President of the United States has decided to reveal the truth behind what took place in the belief that it will curb the current resurgence in bioterrorist activity. Due to be by the President's side is his personal friend and Raccoon City survivor, Leon S. Kennedy, but when the venue suffers a bioterrorist attack, Leon is forced to face a President transformed beyond recognition and make his hardest ever decision. At the same time, Bioterrorism Security Assessment Alliance member Chris Redfield arrives in China, itself under threat of a bioterrorist attack. With no country safe from these attacks and the ensuing outbreaks, the entire world's population is united by a common fear that there is no hope left.

Resident Evil 6 promises yet another dramatic, frightening experience blending action and survival horror. In a first for the franchise, RE 6 sees series favorites Leon and Chris come together to face this unprecedented threat. They are joined by new characters, each with their own unique perspective and involvement, in this relentless outbreak enacted on a global scale.

Release Date: October 2, 2012
M for Mature: Blood and Gore, Intense Violence, Nudity, Strong Language, Suggestive Themes
Genre: Action
Publisher: Capcom


-----------------------
Wait For Fix
----------------------



Thursday, 27 September 2012

Twisted Metal[PS3][USA][Update Patch Fixed][1.01 - 1.06]


Click For Info:

Update Fix Only


-----------------------
Tested On 3.55 Kmeaw
Install Official Update 1st(ALL)
Then Install All Update Fix
Need to install All otherwise it wont work
Fix Only
----------------------