PS3 Honey Search

News About PS3

Requests are open. Make your request
PS3 4.30 CFW Released Enjoy new games with FW upto 4.30 without any Eboot fix. If you had previously fixed 3.55 CFW games Replace those fixes with original Files/Eboots/sprx
Download PS3 Fonts For Your PC:

Downloaders

Friday, 17 August 2012

Farrari K Sawaari [2012] - DVDRip - x264 - E.Subs - 5.1-By K@rtik- [ExD Exclusive][808MB] torrent


Click For Info:


Format                                   : Matroska
Format version                           : Version 2
File size                                : 797 MiB
Duration                                 : 2h 19mn
Overall bit rate                         : 797 Kbps
Movie name                               : Farrari K Sawaari [2012] - DVDRip - x264 - E.Subs - 5.1-By K@rtik- [ExD Exclusive]
Encoded date                             : UTC 2012-08-16 16:26:48

Video
Code:
Format                                   : AVC
Format/Info                              : Advanced Video Codec
Format profile                           : High@L2.2
Format settings, CABAC                   : Yes
Format settings, ReFrames                : 4 frames
Muxing mode                              : Header stripping
Codec ID                                 : V_MPEG4/ISO/AVC
Duration                                 : 2h 19mn
Bit rate                                 : 668 Kbps
Width                                    : 720 pixels
Height                                   : 288 pixels
Display aspect ratio                     : 2.500
Frame rate                               : 23.976 fps
Color space                              : YUV
Chroma subsampling                       : 4:2:0
Bit depth                                : 8 bits
Scan type                                : Progressive
Bits/(Pixel*Frame)                       : 0.134
Stream size                              : 653 MiB (82%)
Title                                    : K@rtik
Writing library                          : x264 core 125 r2200 999b753

Audio
Code:
Format                                   : AC-3
Format/Info                              : Audio Coding 3
Mode extension                           : CM (complete main)
Format settings, Endianness              : Big
Muxing mode                              : Header stripping
Codec ID                                 : A_AC3
Duration                                 : 2h 19mn
Bit rate mode                            : Constant
Bit rate                                 : 128 Kbps
Channel(s)                               : 6 channels
Channel positions                        : Front: L C R, Side: L R, LFE
Sampling rate                            : 48.0 KHz
Bit depth                                : 16 bits
Compression mode                         : Lossy
Stream size                              : 128 MiB (16%)
Title                                    : K@rtik
Language                                 : Hindi


-----------------------
BluRay Rip
----------------------






How To Download: 
Download Files By Copying the Link and paste to Browser. Or Select Link press Right-Click, select goto link(In chrome) Would Be different in other browsers.
After open the link, wait 5sec, Press Skip Ad at the top right. Download file.


For Torrent Download:
Click On Link and Torrent will be downloaded automatically.
Open torrent file with your favourite torrent client(Like uTorrent).

Note: Downloading files using any of the downloader will help you download files faster and easily.


IF THERES ANY DEAD LINKS, LEAVE A COMMENT HERE I"LL REPOST ASAP!


------------------
DVDRIP
------------------



Screens:
Click On Images To Enlarge


Important Downloads: - Direct Link - Click Image

   

Downloads:
Info Hash: 5F47EB8BB7407E0ADD3438DCC9030A5C3332EC3D

If you Like it Please say Thanks!




No comments:

Post a Comment

Related Posts Plugin for WordPress, Blogger...