PS3 Honey Search

News About PS3

Requests are open. Make your request
PS3 4.30 CFW Released Enjoy new games with FW upto 4.30 without any Eboot fix. If you had previously fixed 3.55 CFW games Replace those fixes with original Files/Eboots/sprx
Download PS3 Fonts For Your PC:

Downloaders

Sunday, 15 July 2012

Battleship 2012 R6 WEBSCR XviD-NFT[1.37Gb] torrent



Click For Info:


Plot:

A fleet of ships is forced to do battle with an armada of unknown origins in order to discover and thwart their destructive goals.......



Genre: Action , Sci-Fi , Thriller

Director: Peter Berg

IMDB ......: http://www.imdb.com/title/tt1440129/

Starring: Alexander SkarsgÄrd, Brooklyn Decker, Liam Neeson

Language: English


Format : AVI
Format/Info : Audio Video Interleave
File size : 1.37 GiB
Duration : 2h 0mn
Overall bit rate : 1 618 Kbps

Writing library : The best and REALLY easy backup tool

Video
ID : 0
Format : MPEG-4 Visual
Format profile : Simple@L3
Format settings, BVOP : No
Format settings, QPel : No
Format settings, GMC : No warppoints
Format settings, Matrix : Default (H.263)
Codec ID : XVID
Codec ID/Hint : XviD
Duration : 2h 0mn
Bit rate : 1 478 Kbps
Width : 688 pixels
Height : 312 pixels
Display aspect ratio : 2.2:1
Frame rate : 29.970 fps
Color space : YUV
Chroma subsampling : 4:2:0
Bit depth : 8 bits
Scan type : Progressive
Compression mode : Lossy
Bits/(Pixel*Frame) : 0.230
Stream size : 1.25 GiB (91%)
Writing library : XviD 1.2.1 (UTC 2008-12-04)

Audio
ID : 1
Format : MPEG Audio
Format version : Version 1
Format profile : Layer 3
Mode : Joint stereo
Mode extension : MS Stereo
Codec ID : 55
Codec ID/Hint : MP3
Duration : 2h 0mn
Bit rate mode : Constant
Bit rate : 128 Kbps
Channel(s) : 2 channels
Sampling rate : 48.0 KHz
Compression mode : Lossy
Stream size : 111 MiB (8%)
Alignment : Aligned on interleaves
Interleave, duration : 33 ms (1.00 video frame)
Interleave, preload duration : 504 ms
Writing library : LAME3.97
Encoding settings : -m j -V 4 -q 2 -lowpass 17 -b 128


-----------------------
R6
----------------------







How To Download: 
Download Files By Copying the Link and paste to Browser. Or Select Link press Right-Click, select goto link(In chrome) Would Be different in other browsers.
After open the link, wait 5sec, Press Skip Ad at the top right. Download file.


For Torrent Download:
Click On Link and Torrent will be downloaded automatically.
Open torrent file with your favourite torrent client(Like uTorrent).

Note: Downloading files using any of the downloader will help you download files faster and easily.


IF THERES ANY DEAD LINKS, LEAVE A COMMENT HERE I"LL REPOST ASAP!


------------------
R6
------------------

Screens:
Click On Images To Enlarge


Download Skymonk: - Direct Link - Press Image



Downloads:
Torrent

If you Like it Please say Thanks!





















Search Keywords: - PS3 Games, PS3 Themes, PS3 Hack, PS3 Save Game Data, PS3 Jailbreak, PS3 Jailbreaking, PS3 Free Games Download, Free PS3 Games, PS3 Screeenshots, PS3 Games Screnshots, PS3 Cracking, PS3 Screnshots, PS3, PS3 Guides, How to play PS3 games, How to Install PS3 Games, PS3 PSN Games, PS3 PSN, PSN Games, PS3 Eboots, PS3 Eboot Fixes, PS3 True Blue Eboot fixes, PS3 True Blue Games, PS3 True Blue Paradox Games, PS3 True Blue TB Games, PS3 3.55 Eboot Fixes, PS3 3.55 Kmeaw Eboot Fixes, PS3 3.41 Eboot Fixes, PS3 3.55 Kmeaw, PS3 Kmeaw 3.55 CFW, PS3 multiMAN, PS3 multiMAN backup manager, PS3 multiMAN BDEMU, BDEMU 2, PS3 Downloads, PS3 Fixes, PS3 Images, PS3 Games Images, True Blue Eboots, True Blue Patched Games, multiMAN Themes, multiMAN Latest Version, Letitbit Links, PS3 Letitbit

No comments:

Post a Comment

Related Posts Plugin for WordPress, Blogger...