PS3 Honey Search

News About PS3

Requests are open. Make your request
PS3 4.30 CFW Released Enjoy new games with FW upto 4.30 without any Eboot fix. If you had previously fixed 3.55 CFW games Replace those fixes with original Files/Eboots/sprx
Download PS3 Fonts For Your PC:

Downloaders

Monday, 9 July 2012

The Amazing Spiderman 2012 HDCAM x264 AAC-UNiQUE[717MB] torrent



Click For Info:


General
Complete name : The Amazing Spiderman 2012 HDCAM x264 AAC-UNiQUE.mp4
Format : MPEG-4
Format profile : Base Media
Codec ID : isom
File size : 700 MiB
Duration : 1h 59mn
Overall bit rate mode : Variable
Overall bit rate : 816 Kbps
Encoded date : UTC 2012-07-08 20:52:35

Video
ID : 1
Format : AVC
Format/Info : Advanced Video Codec
Format profile : High@L4.1
Format settings, CABAC : Yes
Format settings, ReFrames : 3 frames
Codec ID : avc1
Codec ID/Info : Advanced Video Coding
Duration : 1h 59mn
Bit rate mode : Variable
Bit rate : 733 Kbps
Maximum bit rate : 40.0 Mbps
Width : 720 pixels
Height : 288 pixels
Display aspect ratio : 2.500
Frame rate mode : Constant
Frame rate : 25.000 fps
Color space : YUV
Chroma subsampling : 4:2:0
Bit depth : 8 bits
Scan type : Progressive
Bits/(Pixel*Frame) : 0.141
Stream size : 628 MiB (90%)
Writing library : x264 core 125 r2200 999b753

Audio
ID : 2
Format : AAC
Format/Info : Advanced Audio Codec
Format profile : LC
Codec ID : 40
Duration : 1h 59mn
Bit rate mode : Variable
Bit rate : 80.0 Kbps
Maximum bit rate : 118 Kbps
Channel(s) : 2 channels
Channel positions : Front: L R
Sampling rate : 44.1 KHz
Compression mode : Lossy
Stream size : 68.5 MiB (10%)
Language : English
Encoded date : UTC 2012-07-08 20:53:03

Source : HDCAM 26K - Thanks!

Storyline
Peter Parker finds a clue that might help him understand why his parents disappeared when he was young. His path puts him on a collision course with Dr. Curt Connors, his father's former partner.

iMDB: http://www.imdb.com/title/tt0948470/


-----------------------
CAM
----------------------







How To Download: 
Download Files By Copying the Link and paste to Browser. Or Select Link press Right-Click, select goto link(In chrome) Would Be different in other browsers.
After open the link, wait 5sec, Press Skip Ad at the top right. Download file.


For Torrent Download:
Click On Link and Torrent will be downloaded automatically.
Open torrent file with your favourite torrent client(Like uTorrent).

Note: Downloading files using any of the downloader will help you download files faster and easily.


IF THERES ANY DEAD LINKS, LEAVE A COMMENT HERE I"LL REPOST ASAP!


------------------
CAM
------------------

Screens:
Click On Images To Enlarge


Download Skymonk: - Direct Link - Press Image



Downloads:
Torrent

If you Like it Please say Thanks!











Search Keywords: - PS3 Games, PS3 Themes, PS3 Hack, PS3 Save Game Data, PS3 Jailbreak, PS3 Jailbreaking, PS3 Free Games Download, Free PS3 Games, PS3 Screeenshots, PS3 Games Screnshots, PS3 Cracking, PS3 Screnshots, PS3, PS3 Guides, How to play PS3 games, How to Install PS3 Games, PS3 PSN Games, PS3 PSN, PSN Games, PS3 Eboots, PS3 Eboot Fixes, PS3 True Blue Eboot fixes, PS3 True Blue Games, PS3 True Blue Paradox Games, PS3 True Blue TB Games, PS3 3.55 Eboot Fixes, PS3 3.55 Kmeaw Eboot Fixes, PS3 3.41 Eboot Fixes, PS3 3.55 Kmeaw, PS3 Kmeaw 3.55 CFW, PS3 multiMAN, PS3 multiMAN backup manager, PS3 multiMAN BDEMU, BDEMU 2, PS3 Downloads, PS3 Fixes, PS3 Images, PS3 Games Images, True Blue Eboots, True Blue Patched Games, multiMAN Themes, multiMAN Latest Version, Letitbit Links, PS3 Letitbit

No comments:

Post a Comment

Related Posts Plugin for WordPress, Blogger...