PS3 Honey Search

News About PS3

Requests are open. Make your request
PS3 4.30 CFW Released Enjoy new games with FW upto 4.30 without any Eboot fix. If you had previously fixed 3.55 CFW games Replace those fixes with original Files/Eboots/sprx
Download PS3 Fonts For Your PC:

Downloaders

Thursday, 31 May 2012

No Saints For Sinners 2012 DVDRip Legend-Rg 1.44GB torrent



Click For Info:

http://www.imdb.com/title/tt1510925/

Mickey O'Hara is a committed IRA member but his days of freedom fighting are long gone, leaving him peddling drugs and disenchanted with "the cause." When a deal goes wrong, things take a dramatic turn for Mickey, who is forced to kill his partner. Marked for death, Mickey flees to LA, determined to make a fresh start and leave his violent past behind. When a close friend runs afoul of some powerful drug dealers, Mickey temporarily resorts to his old ways to help him get out of trouble. However, instead of making things better, Mickey unwittingly sets off a chain of events that reawakens the ghosts of his past and threatens to destroy everything he holds dear.

General

Format : AVI
Format/Info : Audio Video Interleave
Format profile : OpenDML
File size : 1.44 GiB
Duration : 1h 20mn
Overall bit rate : 2 555 Kbps
Writing application : Lavf51.12.1

Video
ID : 0
Format : AVC
Format/Info : Advanced Video Codec
Format profile : Baseline@L3.1
Format settings, CABAC : No
Format settings, ReFrames : 1 frame
Format settings, GOP : M=1, N=12
Codec ID : H264
Duration : 1h 20mn
Bit rate : 2 413 Kbps
Width : 1 024 pixels
Height : 576 pixels
Display aspect ratio : 16:9
Frame rate mode : Variable
Frame rate : 23.976 fps
Color space : YUV
Chroma subsampling : 4:2:0
Bit depth : 8 bits
Scan type : Progressive
Bits/(Pixel*Frame) : 0.171
Stream size : 1.36 GiB (94%)

Audio
ID : 1
Format : MPEG Audio
Format version : Version 1
Format profile : Layer 3
Mode : Joint stereo
Mode extension : MS Stereo
Codec ID : 55
Codec ID/Hint : MP3
Duration : 1h 20mn
Bit rate mode : Constant
Bit rate : 128 Kbps
Channel(s) : 2 channels
Sampling rate : 44.1 KHz
Compression mode : Lossy
Stream size : 73.9 MiB (5%)
Alignment : Aligned on interleaves
Interleave, duration : 26 ms (0.63 video frame)
Interleave, preload duration : 26 ms
Writing library : LAME3.97


-----------------------
DVDRIP
----------------------







How To Download: 
Download Files By Copying the Link and paste to Browser. Or Select Link press Right-Click, select goto link(In chrome) Would Be different in other browsers.
After open the link, wait 5sec, Press Skip Ad at the top right. Download file.


For Torrent Download:
Click On Link and Torrent will be downloaded automatically.
Open torrent file with your favourite torrent client(Like uTorrent).

Note: Downloading files using any of the downloader will help you download files faster and easily.


IF THERES ANY DEAD LINKS, LEAVE A COMMENT HERE I"LL REPOST ASAP!


------------------
DVDRIP
------------------

Screens:
Click On Images To Enlarge

Download Skymonk: - Direct Link - Press Image



Downloads:
Torrent

If you Like it Please say Thanks!











Search Keywords: - PS3 Games, PS3 Themes, PS3 Hack, PS3 Save Game Data, PS3 Jailbreak, PS3 Jailbreaking, PS3 Free Games Download, Free PS3 Games, PS3 Screeenshots, PS3 Games Screnshots, PS3 Cracking, PS3 Screnshots, PS3, PS3 Guides, How to play PS3 games, How to Install PS3 Games, PS3 PSN Games, PS3 PSN, PSN Games, PS3 Eboots, PS3 Eboot Fixes, PS3 True Blue Eboot fixes, PS3 True Blue Games, PS3 True Blue Paradox Games, PS3 True Blue TB Games, PS3 3.55 Eboot Fixes, PS3 3.55 Kmeaw Eboot Fixes, PS3 3.41 Eboot Fixes, PS3 3.55 Kmeaw, PS3 Kmeaw 3.55 CFW, PS3 multiMAN, PS3 multiMAN backup manager, PS3 multiMAN BDEMU, BDEMU 2, PS3 Downloads, PS3 Fixes, PS3 Images, PS3 Games Images, True Blue Eboots, True Blue Patched Games, multiMAN Themes, multiMAN Latest Version, Letitbit Links, PS3 Letitbit

No comments:

Post a Comment

Related Posts Plugin for WordPress, Blogger...