PS3 Honey Search

News About PS3

Requests are open. Make your request
PS3 4.30 CFW Released Enjoy new games with FW upto 4.30 without any Eboot fix. If you had previously fixed 3.55 CFW games Replace those fixes with original Files/Eboots/sprx
Download PS3 Fonts For Your PC:

Downloaders

Sunday, 6 May 2012

Asylum Blackout 2011 DVDSCR XViD-sC0rp



Info: 

Full name: Asylum Blackout 2011 DVDSCR XViD-sC0rp 
Format: AVI 
Format / Info: Audio Video Interleave 
File size: 727 MiB 
Duration: 1h 19mn 
Overall bit rate: 1284 Kbps 
Library used: VirtualDub build 32842/release 




-----------------------
DVDSCR
----------------------















How To Download: 
Download Files By Copying the Link and paste to Browser. Or Select Link press Right-Click, select goto link(In chrome) Would Be different in other browsers.
After open the link, wait 5sec, Press Skip Ad at the top right. Download file.

Note: Downloading files using any of the downloader will help you download files faster and easily.





Video 
ID: 0 
Format: MPEG-4 Visual 
Format profile: Simple @ L5 Advanced 
Conf format, BVOP: 2 
Conf format, QPel: No 
Conf format, GMC: No warppoints 
Conf format, Matrix: Default (H.263) 
Multiplexing mode: Packed bitstream 
Codec ID: XVID 
Codec ID / Hint: XviD 
Duration: 1h 19mn 
Bit rate: 1146 Kbps 
Width: 640 pixels 
Height: 272 pixels 
Aspect ratio: 2.35:1 
Frame rate: 23.976 fps 
ColorSpace: YUV 
ChromaSubsampling: 4:2:0 
BitDepth / String: 8 bits 
Scan type: Progressive 
Bits / (Pixel * Frame): 0275 
Stream size: 649 MiB (89%) 
Library used: XviD 64 

Audio 
ID: 1 
Format: MPEG Audio 
Format version: Version 1 
Format profile: Layer 3 
Format_Settings_Mode: Joint stereo 
Format_Settings_ModeExtension: MS stereo 
Codec ID: 55 
Codec ID / Hint: MP3 
Duration: 1h 19mn 
Bit rate mode: Constant 
Bit rate: 128 Kbps 
Number of channels: 2 channels 
Sampling rate: 48.0 KHz 
Video delay: 2ms 
Stream size: 72.5 MiB (10%) 
Alignment: Split between the intercalated 
Range, duration: 42 ms (1.00 video frame) 
Interval, the duration of the pre-boot: 500 ms


IF THERES ANY DEAD LINKS, LEAVE A COMMENT HERE I"LL REPOST ASAP!


------------------
DVDSCR
------------------




Screens:
Click On Images To Enlarge





Download Skymonk: - Direct Link - Press Image



Downloads:
Torrent













Search Keywords: - PS3 Games, PS3 Themes, PS3 Hack, PS3 Save Game Data, PS3 Jailbreak, PS3 Jailbreaking, PS3 Free Games Download, Free PS3 Games, PS3 Screeenshots, PS3 Games Screnshots, PS3 Cracking, PS3 Screnshots, PS3, PS3 Guides, How to play PS3 games, How to Install PS3 Games, PS3 PSN Games, PS3 PSN, PSN Games, PS3 Eboots, PS3 Eboot Fixes, PS3 True Blue Eboot fixes, PS3 True Blue Games, PS3 True Blue Paradox Games, PS3 True Blue TB Games, PS3 3.55 Eboot Fixes, PS3 3.55 Kmeaw Eboot Fixes, PS3 3.41 Eboot Fixes, PS3 3.55 Kmeaw, PS3 Kmeaw 3.55 CFW, PS3 multiMAN, PS3 multiMAN backup manager, PS3 multiMAN BDEMU, BDEMU 2, PS3 Downloads, PS3 Fixes, PS3 Images, PS3 Games Images, True Blue Eboots, True Blue Patched Games, multiMAN Themes, multiMAN Latest Version, Letitbit Links, PS3 Letitbit

No comments:

Post a Comment

Related Posts Plugin for WordPress, Blogger...