PS3 Honey Search

News About PS3

Requests are open. Make your request
PS3 4.30 CFW Released Enjoy new games with FW upto 4.30 without any Eboot fix. If you had previously fixed 3.55 CFW games Replace those fixes with original Files/Eboots/sprx
Download PS3 Fonts For Your PC:

Downloaders

Monday, 30 April 2012

The Lucky One 2012 Cam XviD



Info: 

Genre:Drama
Language:English
IMDb:http://www.imdb.com/title/tt1327194/
Source:TNZ/Santanas/INSPiRAL Thanks!
Encoder:Tony

Plot:
A Marine travels to Louisiana after serving three tours in Iraq and searches for the unknown woman he believes was his good luck charm during the war




-----------------------
Cam
----------------------









Search Keywords: - PS3 Games, PS3 Themes, PS3 Hack, PS3 Save Game Data, PS3 Jailbreak, PS3 Jailbreaking, PS3 Free Games Download, Free PS3 Games, PS3 Screeenshots, PS3 Games Screnshots, PS3 Cracking, PS3 Screnshots, PS3, PS3 Guides, How to play PS3 games, How to Install PS3 Games, PS3 PSN Games, PS3 PSN, PSN Games, PS3 Eboots, PS3 Eboot Fixes, PS3 True Blue Eboot fixes, PS3 True Blue Games, PS3 True Blue Paradox Games, PS3 True Blue TB Games, PS3 3.55 Eboot Fixes, PS3 3.55 Kmeaw Eboot Fixes, PS3 3.41 Eboot Fixes, PS3 3.55 Kmeaw, PS3 Kmeaw 3.55 CFW, PS3 multiMAN, PS3 multiMAN backup manager, PS3 multiMAN BDEMU, BDEMU 2, PS3 Downloads, PS3 Fixes, PS3 Images, PS3 Games Images, True Blue Eboots, True Blue Patched Games, multiMAN Themes, multiMAN Latest Version, Letitbit Links, PS3 Letitbit













How To Download: 
Download Files By Copying the Link and paste to Browser. Or Select Link press Right-Click, select goto link(In chrome) Would Be different in other browsers.
After open the link, wait 5sec, Press Skip Ad at the top right. Download file.

Note: Downloading files using any of the downloader will help you download files faster and easily.


Genre:Drama
Language:English
IMDb:http://www.imdb.com/title/tt1327194/
Source:TNZ/Santanas/INSPiRAL Thanks!
Encoder:Tony

Format : AVI
Format/Info : Audio Video Interleave
File size : 1.12 GiB
Duration : 1h 37mn
Overall bit rate : 1 653 Kbps

Video
ID : 0
Format : MPEG-4 Visual
Format profile : Advanced Simple@L5
Format settings, BVOP : 1
Format settings, QPel : No
Format settings, GMC : No warppoints
Format settings, Matrix : Default (H.263)
Codec ID : XVID
Codec ID/Hint : XviD
Duration : 1h 37mn
Bit rate : 1 451 Kbps
Width : 640 pixels
Height : 272 pixels
Display aspect ratio : 2.35:1
Frame rate : 25.000 fps
Color space : YUV
Chroma subsampling : 4:2:0
Bit depth : 8 bits
Scan type : Progressive
Compression mode : Lossy
Bits/(Pixel*Frame) : 0.333
Stream size : 1 010 MiB (88%)
Writing library : XviD 1.2.1 (UTC 2008-12-04)

Audio
ID : 1
Format : AC-3
Format/Info : Audio Coding 3
Mode extension : CM (complete main)
Codec ID : 2000
Duration : 1h 37mn
Bit rate mode : Constant
Bit rate : 192 Kbps
Channel(s) : 2 channels
Channel positions : Front: L R
Sampling rate : 48.0 KHz
Bit depth : 16 bits
Compression mode : Lossy
Stream size : 134 MiB (12%)
Alignment : Aligned on interleaves
Interleave, duration : 40 ms (1.00 video frame)
Interleave, preload duration : 512 ms



IF THERES ANY DEAD LINKS, LEAVE A COMMENT HERE I"LL REPOST ASAP!


------------------
Cam
------------------




Screens:
Click On Images To Enlarge





Download Skymonk: - Direct Link - Press Image



Downloads:
Torrent










Search Keywords: - PS3 Games, PS3 Themes, PS3 Hack, PS3 Save Game Data, PS3 Jailbreak, PS3 Jailbreaking, PS3 Free Games Download, Free PS3 Games, PS3 Screeenshots, PS3 Games Screnshots, PS3 Cracking, PS3 Screnshots, PS3, PS3 Guides, How to play PS3 games, How to Install PS3 Games, PS3 PSN Games, PS3 PSN, PSN Games, PS3 Eboots, PS3 Eboot Fixes, PS3 True Blue Eboot fixes, PS3 True Blue Games, PS3 True Blue Paradox Games, PS3 True Blue TB Games, PS3 3.55 Eboot Fixes, PS3 3.55 Kmeaw Eboot Fixes, PS3 3.41 Eboot Fixes, PS3 3.55 Kmeaw, PS3 Kmeaw 3.55 CFW, PS3 multiMAN, PS3 multiMAN backup manager, PS3 multiMAN BDEMU, BDEMU 2, PS3 Downloads, PS3 Fixes, PS3 Images, PS3 Games Images, True Blue Eboots, True Blue Patched Games, multiMAN Themes, multiMAN Latest Version, Letitbit Links, PS3 Letitbit

No comments:

Post a Comment

Related Posts Plugin for WordPress, Blogger...